<?xml version="1.0" standalone="no"?>
<!DOCTYPE svg PUBLIC "-//W3C//DTD SVG 1.1//EN" "http://www.w3.org/Graphics/SVG/1.1/DTD/svg11.dtd" >
<svg xmlns="http://www.w3.org/2000/svg">
<metadata>Generated by IcoMoon</metadata>
<defs>
<font id="careox" horiz-adv-x="1024">
<font-face units-per-em="1024" ascent="960" descent="-64" />
<missing-glyph horiz-adv-x="1024" />
<glyph unicode="&#x20;" horiz-adv-x="512" d="" />
<glyph unicode="&#xe900;" glyph-name="charity" d="M927.904 514.768l-16 144c-0.896 8.096-7.744 14.24-15.904 14.24-20.352 0-38.112-7.808-51.344-22.576-37.136-41.456-30.048-125.872-28.656-139.28v-15.536c-55.488-2.592-68.928-19.664-91.152-54.704-7.712-12.176-17.28-27.232-31.76-44.992l-84.416-57.792c-9.904-7.712-96.672-76.848-96.672-130.128 0-46.272 6.56-76.672 11.36-98.88 2.592-12.016 4.64-21.52 4.64-29.12v-48c0-21.152 32-21.184 32 0v48c0 11.008-2.48 22.528-5.36 35.872-4.496 20.8-10.64 49.28-10.64 92.128 0 28.48 51.728 79.44 83.536 104.304l85.504 58.496c1.248 0.848 2.352 1.856 3.312 3.008 16.56 20.048 27.072 36.624 35.536 49.952 17.392 27.44 23.792 37.52 60.56 39.744-4.576-21.248-13.248-56.448-25.856-86.208-10.336-9.968-51.648-49.984-78.256-78.336-14.48-15.424 8.832-37.328 23.344-21.888 29.36 31.328 78.912 78.928 79.408 79.408 1.52 1.456 2.736 3.2 3.584 5.12 17.456 39.904 31.696 101.76 33.056 116.992 0.416 4.48 0.336 33.824 0.192 35.168-2.496 22.912-3.664 88.304 20.608 115.344 3.984 4.432 8.384 7.568 13.424 9.52l13.968-125.664c-1.84-17.888-15.904-155.312-15.776-175.728-2.528-8.784-32.016-35.968-53.552-55.824-54.624-50.352-122.592-113.008-122.592-169.408v-80c0-21.152 32-21.184 32 0v80c0 42.384 64.88 102.192 112.256 145.856 43.056 39.68 63.744 59.584 63.744 78.144 0 17.392 11.488 132.48 15.92 175.36 0.112 1.136 0.112 2.272-0.016 3.408zM414.528 338.704l-83.616 57.216c-14.48 17.76-24.032 32.816-31.76 44.992-22.224 35.040-35.664 52.112-91.152 54.704v15.536c1.392 13.408 8.48 97.824-28.656 139.28-13.232 14.768-30.992 22.56-51.344 22.56-8.16 0-15.008-6.128-15.904-14.24l-16-144c-0.128-1.136-0.128-2.272-0.016-3.408 4.432-42.864 15.92-157.952 15.92-175.344 0-18.56 20.688-38.464 63.744-78.144 47.376-43.664 112.256-103.472 112.256-145.856v-80c0-8.832 7.168-16 16-16s16 7.168 16 16v80c0 56.4-67.968 119.056-122.576 169.392-21.52 19.856-51.024 47.024-53.424 54.608 0 21.584-14.064 159.056-15.904 176.944l13.968 125.664c40.208-15.504 33.936-99.92 33.936-126.608 0.016-4.224-0.112-32.688 0.224-34.672 0.448-2.672 11.264-65.792 33.12-115.744 0.848-1.936 2.048-3.664 3.584-5.12 0.496-0.48 50.032-48.080 79.408-79.408 14.512-15.488 37.792 6.496 23.344 21.888-26.608 28.368-67.92 68.384-78.256 78.336-12.608 29.76-21.28 64.96-25.856 86.208 36.768-2.224 43.168-12.304 60.56-39.744 5.152-8.112 30.816-47.504 38.832-52.96l84.688-57.92c32.624-25.392 84.352-76.32 84.352-104.864 0-42.848-6.144-71.328-10.64-92.128-2.88-13.344-5.36-24.864-5.36-35.872v-48c0-8.832 7.168-16 16-16s16 7.168 16 16v48c0 7.6 2.048 17.104 4.64 29.12 4.8 22.208 11.36 52.608 11.36 98.88 0 53.28-86.768 122.416-97.472 130.704zM504.304 369.968c4.8-2.624 10.592-2.624 15.392 0 171.68 94.208 296.304 242.336 296.304 352.208 0 102.512-74.192 157.824-144 157.824-70.4 0-127.568-58.832-160-126.288-32.432 67.456-89.616 126.288-160 126.288-69.808 0-144-55.312-144-157.824 0-109.888 124.624-258 296.304-352.208zM352 848c66.928 0 122-73.504 144.832-141.808 4.848-14.528 25.488-14.512 30.336 0 22.832 68.304 77.904 141.808 144.832 141.808 54.304 0 112-44.096 112-125.824 0-95.728-116.4-232.176-272-319.872-155.6 87.696-272 224.128-272 319.872 0 81.728 57.696 125.824 112 125.824z" />
<glyph unicode="&#xe901;" glyph-name="charity-three" d="M368 477.824c0-54.080 57.2-126.288 136.016-171.68 4.928-2.848 11.024-2.848 15.968 0 78.816 45.392 136.016 117.6 136.016 171.68 0 53.376-37.552 82.176-72.88 82.176-29.84 0-54.656-21.392-71.104-48.672-16.432 27.28-41.248 48.672-71.12 48.672-35.328 0-72.896-28.8-72.896-82.176zM440.896 528c24.128 0 46.352-30.256 55.856-60.128 2.112-6.64 8.288-11.152 15.248-11.152s13.12 4.512 15.248 11.136c9.52 29.888 31.776 60.144 55.872 60.144 19.824 0 40.88-17.584 40.88-50.176 0-35.456-41.696-96.128-112-139.216-70.304 43.088-112 103.744-112 139.216 0 32.592 21.056 50.176 40.896 50.176zM928 413.056v2.944c0 33.552-33.984 57.312-65.856 44.48-14.688 54.176-94.144 42.992-94.144-12.48v-2.944c-32.368 11.536-64-12.992-64-45.056v-162.784c-20.352 20.864-29.92 50.784-64 50.784-38.016 0-60.752-42.4-40.544-73.664h-0.016c76.944-118.448 81.776-134.208 107.312-159.712 18.864-18.864 29.248-43.936 29.248-70.624 0-21.168 32-21.184 32 0 0 67.056-40.544 88.944-61.184 121.36-1.024 1.6-82.432 129.408-80.4 126.208-10.016 18.352 13.968 33.136 26.048 18.464l51.536-63.696v-10.336c0-21.168 32-21.184 32 0v224c0 21.168 32 21.168 32 0v-144c0-8.832 7.152-16 16-16s16 7.168 16 16v192c0 21.168 32 21.168 32 0v-192c0-8.832 7.152-16 16-16s16 7.168 16 16v160c0 21.168 32 21.168 32 0v-160c0-8.832 7.152-16 16-16s16 7.168 16 16v112c0 21.168 32 21.168 32 0v-205.024c0-62.864-32-78.832-32-149.936v-29.040c0-21.168 32-21.184 32 0v29.024c0 62.24 32 79.552 32 149.936v205.040c0 31.952-31.52 56.624-64 45.056zM976 704c-66.896 0-89.152-40.656-121.36-61.2l-126.176-80.368c-0.016 0-0.032-0.016-0.048-0.016-18.16-9.904-33.36 13.792-18.464 26.048l63.712 51.536h10.336c21.184 0 21.168 32 0 32h-224c-21.168 0-21.168 32 0 32h144c21.184 0 21.168 32 0 32h-192c-21.168 0-21.168 32 0 32h192c21.184 0 21.168 32 0 32h-160c-21.168 0-21.168 32 0 32h160c21.184 0 21.168 32 0 32h-112c-21.168 0-21.168 32 0 32h205.024c63.056 0 79.152-32 149.936-32h29.040c21.184 0 21.168 32 0 32h-29.024c-62.736 0-78.976 32-149.936 32h-205.040c-31.952 0-56.624-31.52-45.056-64h-2.944c-33.552 0-57.312-33.984-44.48-65.856-54.176-14.688-42.992-94.144 12.48-94.144h2.944c-11.536-32.368 12.992-64 45.056-64h162.8c-20.96-20.432-50.8-29.84-50.8-64 0-37.984 42.128-60.624 73.664-40.56l126.176 80.368c35.84 22.864 50.592 56.192 104.16 56.192 21.184 0 21.168 32 0 32zM96 482.944v-2.944c0-33.552 33.984-57.312 65.856-44.48 14.688-54.176 94.144-42.992 94.144 12.48v2.944c32.368-11.536 64 12.992 64 45.056v162.784c20.352-20.864 29.92-50.784 64-50.784 38.32 0 60.56 42.688 40.544 73.664h0.016c-76.8 118.208-81.616 134.016-107.312 159.712-18.864 18.864-29.248 43.936-29.248 70.624 0 21.168-32 21.184-32 0 0-35.232 13.712-68.352 38.624-93.264 21.536-21.536 103.984-155.92 102.976-154.32 10.032-18.4-13.904-33.2-26.048-18.464l-51.552 63.712v10.336c0 21.168-32 21.184-32 0v-224c0-21.168-32-21.168-32 0v144c0 21.168-32 21.184-32 0v-192c0-21.168-32-21.168-32 0v192c0 21.168-32 21.184-32 0v-160c0-21.168-32-21.168-32 0v160c0 21.168-32 21.184-32 0v-112c0-21.168-32-21.168-32 0v205.024c0 21.168 3.984 41.856 11.84 61.488l6.032 15.056c9.376 23.456 14.128 48.144 14.128 73.408v29.024c0 21.168-32 21.184-32 0v-29.024c0-21.168-3.984-41.856-11.84-61.504l-6.032-15.056c-9.376-23.44-14.128-48.128-14.128-73.392v-205.024c0-31.952 31.52-56.624 64-45.056zM512 192h-2.944c11.536 32.368-12.992 64-45.056 64h-162.8c20.96 20.432 50.8 29.84 50.8 64 0 26.464-21.536 48-48 48-24.656 0-26.672-11.136-151.824-87.824-35.856-22.848-50.608-56.176-104.176-56.176-21.184 0-21.168-32 0-32 35.216 0 68.336 13.712 93.248 38.624 21.552 21.536 155.936 104 154.336 102.976 2.384 1.296 4.592 2.4 8.416 2.4 14.832 0 21.872-18.72 10.048-28.448l-63.712-51.552h-10.336c-21.184 0-21.168-32 0-32h224c21.168 0 21.168-32 0-32h-144c-21.184 0-21.168-32 0-32h192c21.168 0 21.168-32 0-32h-192c-21.184 0-21.168-32 0-32h160c21.168 0 21.168-32 0-32h-160c-21.184 0-21.168-32 0-32h112c21.168 0 21.168-32 0-32h-205.024c-21.152 0-41.84 3.984-61.504 11.856l-15.072 6c-23.424 9.392-48.112 14.144-73.376 14.144h-29.024c-8.848 0-16-7.168-16-16s7.152-16 16-16h29.024c21.152 0 41.84-3.984 61.504-11.856l15.072-6c23.424-9.392 48.112-14.144 73.376-14.144h205.024c31.952 0 56.624 31.52 45.056 64h2.944c33.6 0 57.296 34.048 44.48 65.856 54.176 14.688 42.992 94.144-12.48 94.144z" />
<glyph unicode="&#xe902;" glyph-name="charity-two" d="M698.322 653.212c15.116 28.982 23.678 61.902 23.678 96.788 0 115.794-94.206 210-210 210s-210-94.206-210-210c0-34.886 8.562-67.806 23.678-96.788-147.872-30.712-263.678-165.040-263.678-327.212v-42.27c0-96.83 37.708-187.864 106.178-256.334 20.248-20.246 47.168-31.396 75.798-31.396 46.856 0.002 86.69 28.978 101.286 73.268 40.388-36.178 93.898-79.842 147.088-125.938 5.638-4.886 12.642-7.33 19.648-7.33s14.010 2.444 19.648 7.33c53.638 46.49 106.654 89.692 147.146 125.95 14.556-44.29 54.368-73.278 101.23-73.28 28.63 0 55.55 11.15 75.8 31.398 68.47 68.468 106.178 159.502 106.178 256.332v42.27c0 162.114-115.736 296.484-263.678 327.212zM512 900c82.71 0 150-67.29 150-150s-67.29-150-150-150c-82.71 0-150 67.29-150 150s67.29 150 150 150zM700.794 175.38c-0.014-0.016-0.030-0.030-0.044-0.046-0.050-0.058-0.098-0.118-0.148-0.176-10.292-11.838-22.34-24.3-36.34-37.672-40.206-38.404-92.016-80.288-152.262-131.892-143.226 122.666-238.27 189.996-238.27 279.798 0 65.906 44.768 115.606 104.134 115.606 31.572 0 58.474-14.902 79.962-44.29 17.858-24.422 25.216-49.818 25.26-49.966 3.6-12.996 15.412-22.046 28.898-22.046 13.484 0 25.296 8.946 28.896 21.942 0.072 0.252 7.432 25.648 25.29 50.070 21.488 29.388 48.39 44.29 79.962 44.29 59.368 0 104.134-49.7 104.134-115.606 0-36.552-14.406-69.62-49.472-110.012zM902 283.73c0-80.804-31.466-156.77-88.6-213.904-8.918-8.916-20.77-13.826-33.376-13.826-41.154 0-60.244 46.938-35.43 78.164 37.222 42.362 65.676 90.772 65.676 151.23 0 95.704-68.168 175.606-164.134 175.606-51.774 0-96.622-24.438-129.696-70.67-1.54-2.152-3.020-4.306-4.44-6.452-1.42 2.144-2.9 4.3-4.44 6.452-33.074 46.232-77.922 70.67-129.696 70.67-96.002 0-164.134-79.936-164.134-175.606 0-58.308 26.454-105.994 64.894-150.134 26.184-31.27 6.93-79.26-34.648-79.26-12.608 0-24.458 4.91-33.376 13.824-57.134 57.134-88.6 133.102-88.6 213.906v42.27c0 140.008 108.496 259.658 244.434 272.788 37.778-36.38 89.102-58.788 145.566-58.788s107.788 22.408 145.566 58.788c135.938-13.13 244.434-132.78 244.434-272.788v-42.27z" />
<glyph unicode="&#xe903;" glyph-name="check-mark" d="M738.328 610.461c15.625-15.625 15.625-40.953 0-56.57l-268.344-268.352c-15.625-15.617-40.945-15.617-56.57 0l-127.742 127.75c-15.625 15.617-15.625 40.945 0 56.563 15.617 15.625 40.945 15.625 56.563 0l99.461-99.461 240.063 240.070c15.625 15.617 40.953 15.617 56.57 0zM1024 448c0-283.008-229.031-512-512-512-283.008 0-512 229.031-512 512 0 283.008 229.031 512 512 512 283.008 0 512-229.031 512-512zM944 448c0 238.789-193.242 432-432 432-238.789 0-432-193.242-432-432 0-238.789 193.242-432 432-432 238.789 0 432 193.242 432 432z" />
<glyph unicode="&#xe904;" glyph-name="email" d="M934 808h-844c-49.524 0-90-40.298-90-90v-540c0-49.72 40.502-90 90-90h844c49.524 0 90 40.298 90 90v540c0 49.714-40.496 90-90 90zM920.18 748c-29.098-29.194-370.89-372.1-384.932-386.188-11.728-11.764-34.762-11.772-46.496 0l-384.932 386.188h816.36zM60 189.030v517.94l258.13-258.97-258.13-258.97zM103.82 148l256.668 257.504 85.77-86.050c35.148-35.262 96.35-35.248 131.486 0l85.77 86.048 256.666-257.502h-816.36zM964 189.030l-258.13 258.97 258.13 258.97v-517.94z" />
<glyph unicode="&#xe905;" glyph-name="generous" d="M839.172 177.216c7.212 12.518 9.14 27.988 3.952 42.654-9.46 26.596-39.14 40.452-66.166 30.89-0.080-0.028-0.158-0.056-0.238-0.086l-49.448-18.434c0.358 6.546-0.486 13.216-2.75 19.648-4.604 12.95-14.006 23.282-26.468 29.094-12.44 5.802-26.55 6.418-39.722 1.73-0.072-0.026-0.144-0.052-0.214-0.078l-92.148-34.36c0.222 6.056-0.69 12.152-2.774 18.020-4.338 12.216-13.188 22.016-24.922 27.592-11.96 5.686-25.528 6.326-38.378 1.746l-168.404-62.4c-6.498 2.396-12.512 4.888-18.344 7.318-37.826 15.766-65.948 24.49-137.976 0.45-3.532 18.67-19.94 32.844-39.622 32.844h-79.128c-22.25 0-40.352-18.102-40.352-40.352v-76.452c0-8.348 6.766-15.116 15.114-15.116s15.114 6.768 15.114 15.116v76.452c0 5.58 4.542 10.122 10.124 10.122h79.126c5.486 0 10.122-4.634 10.122-10.122v-231.346c0-5.488-4.636-10.122-10.122-10.122h-79.126c-5.58 0-10.124 4.54-10.124 10.122v85.338c0 8.348-6.766 15.116-15.114 15.116s-15.114-6.768-15.114-15.116v-85.338c0-22.25 18.102-40.352 40.352-40.352h79.126c18.746 0 34.498 12.868 39.010 30.22 43.468-1.338 67.75-5.942 119.356-21.384l90.712-27.124c16.862-5.014 39.356-7.506 61.962-7.506 23.69 0 47.506 2.738 65.070 8.18 46.466 14.354 120.418 42.544 149.69 54.446l180.884 73.61c13.352 5.456 23.32 16.488 28.062 31.066 5.532 17.002 3.082 37.082-6.38 52.376-6.088 9.888-14.628 17.132-24.742 21.538zM699.59 189.654c0.68 0.2 1.352 0.45 2.010 0.75l85.548 31.894c11.496 4.008 23.556-1.492 27.486-12.532 3.85-10.89-1.882-22.886-12.778-26.74-0.076-0.028-0.154-0.056-0.23-0.084l-217.688-80.988c-0.008 4.71-0.494 9.476-1.548 14.22-2.132 9.608-6.274 18.2-11.968 25.324zM668.558 254.26c5.616 1.97 11.55 1.73 16.722-0.68 5.068-2.362 8.888-6.562 10.744-11.778 3.078-8.742-0.068-18.59-7.474-24l-150.166-55.984-61.174 21.094zM510.218 267.218c5.060 1.802 10.414 1.58 15.078-0.638 4.434-2.108 7.778-5.802 9.412-10.404 1.646-4.64 1.366-9.678-0.788-14.186-2.16-4.52-5.92-7.922-10.59-9.578-0.34-0.122-0.664-0.268-0.992-0.41l-90.080-33.59-55.804 19.242zM841.546 112.654c-1.376-4.232-4.358-9.824-10.728-12.426l-180.862-73.602c-28.844-11.73-101.64-39.484-147.234-53.568-29.068-9.008-80.226-9.274-109.46-0.584l-90.686 27.116c-53.942 16.14-80.728 21.176-126.68 22.622v187.068c72.194 25.586 93.746 16.646 125.618 3.362 7.736-3.224 232.142-81.174 232.142-81.174 0.16-0.056 0.322-0.108 0.484-0.158 13.484-4.146 17.594-16.55 18.734-21.69 1.912-8.614 0.598-17.254-3.402-24.12-0.038-0.064-0.074-0.132-0.11-0.196-1.436-2.422-3.202-4.622-5.29-6.512-11.336-10.248-31.324-11.352-56.298-3.106l-127.604 42.1c-7.924 2.618-16.474-1.692-19.090-9.618-2.614-7.928 1.692-16.474 9.62-19.090l127.6-42.098c15.172-5.010 28.18-6.962 39.244-6.962 24.1 0 38.964 9.264 46.804 16.352 3.030 2.74 5.732 5.778 8.094 9.052l221.834 82.53c0.208 0.070 0.418 0.124 0.624 0.202 14.928 5.692 34.142 6.494 43.284-8.354 4.856-7.844 6.174-18.5 3.362-27.146zM1003.214 735.066l-108.226 203.53c-5.032 9.494-13.486 16.46-23.802 19.616-10.302 3.152-21.198 2.112-30.654-2.924l-69.684-37.036c-19.206-10.234-26.696-33.904-17.154-53.278-7.468-4.026-14.32-7.766-20.624-11.206-55.556-30.318-72.322-39.468-147.34-48.408-8.29-0.988-14.208-8.508-13.22-16.798 0.916-7.682 7.44-13.328 14.99-13.328 0.598 0 1.2 0.036 1.808 0.108 80.804 9.63 101.89 21.138 158.242 51.89 6.21 3.388 12.95 7.066 20.278 11.018l71.812-135.082c-29.036-17.168-47.778-35.050-62.87-59.496-25.226-40.928-56.312-56.688-86.374-71.93-13.404-6.796-27.262-13.822-40.174-22.86l-122.354-85.776c-3.27-2.012-6.452-3.56-9.474-4.64-0.258-0.076-0.516-0.156-0.77-0.248-4.848-1.614-9.266-1.998-12.918-1.018-4.934 1.322-9.212 5.326-12.706 11.894-8.712 16.364 4.34 64.62 28.084 87.976l76.618 75.482c0.316 0.31 0.618 0.636 0.904 0.972 13.144 15.448 12.522 27.956 9.686 35.73-4.748 13.012-18.492 21.51-40.866 25.262-63.692 10.65-88.36-5.384-103.544-26.442-13.81 8.076-28.69 14.294-44.41 18.544-8.85 2.402-17.844 4.11-26.91 5.148l1.624 3.008c27.26 50.628 68.358 65.472 125.834 73.016 8.278 1.086 14.106 8.676 13.020 16.952-1.088 8.278-8.684 14.106-16.954 13.020-56.324-7.392-113.298-23.248-148.51-88.644l-9.018-16.708c-35.178-2.702-69.522-15.868-97.56-37.592-31.438-24.356-53.534-57.566-63.904-96.032-26.060-96.55 31.286-196.302 127.836-222.362 15.776-4.254 31.688-6.3 47.388-6.298 68.178 0.002 132.278 38.578 163.072 102.262 3.256 1.488 6.526 3.228 9.8 5.268 0.23 0.144 0.456 0.294 0.68 0.45l122.698 86.016c11.148 7.804 23.462 14.048 36.5 20.658 32.222 16.338 68.744 34.854 98.43 83.022 12.108 19.608 27.508 34.3 51.362 48.624l8.628-16.228c7.226-13.562 21.184-21.304 35.606-21.302 6.37 0 12.832 1.512 18.84 4.696l69.596 37.020c9.492 5.034 16.458 13.488 19.614 23.804 3.15 10.3 2.11 21.186-2.93 30.65zM561.434 664.698c11.138-1.868 15.584-4.538 17.054-5.686-0.37-0.948-1.282-2.736-3.51-5.428l-48.73-48.006c-10.342 17.050-23.466 32.332-38.732 45.124 9.208 12.632 24.912 22.192 73.918 13.996zM331.804 365.608c-80.454 21.716-128.242 104.842-106.522 185.304 17.268 64.062 75.64 110.020 141.932 111.76 14.62 0.366 29.19-1.39 43.354-5.234 17.5-4.732 33.724-12.36 48.216-22.676 18.71-13.316 34.234-30.906 45.206-51.116l-5.112-5.036c-29.558-29.072-51.122-90.742-33.562-123.726 9.456-17.762 22.38-24.424 31.558-26.886 0.094-0.026 0.192-0.042 0.286-0.066-35.402-53.534-101.748-79.48-165.356-62.324zM977.234 713.252c-0.79-2.584-2.52-4.692-4.886-5.948l-69.596-37.020c-4.896-2.598-10.992-0.748-13.582 4.11l-108.242 203.616c-2.554 4.796-0.66 11.008 4.122 13.556l69.682 37.034c1.44 0.766 3.018 1.156 4.624 1.156 0.994 0 2-0.15 2.988-0.452 2.584-0.79 4.692-2.52 5.946-4.884l108.236-203.546c0.002-0.004 0.004-0.006 0.006-0.010 1.238-2.332 1.488-5.034 0.702-7.612z" />
<glyph unicode="&#xe906;" glyph-name="interactions" d="M242.582 475.32c133.76 0 242.582 108.712 242.582 242.34s-108.822 242.34-242.582 242.34-242.582-108.712-242.582-242.34 108.822-242.34 242.582-242.34zM242.582 899.968c100.626 0 182.492-81.784 182.492-182.31 0-100.524-81.866-182.31-182.492-182.31s-182.492 81.784-182.492 182.31 81.866 182.31 182.492 182.31zM242.582 619.36c54.258 0 98.4 44.098 98.4 98.302 0 16.576-13.452 30.016-30.046 30.016s-30.046-13.438-30.046-30.016c0-21.102-17.186-38.27-38.308-38.27s-38.308 17.166-38.308 38.27c0 16.576-13.452 30.016-30.046 30.016s-30.046-13.438-30.046-30.016c0.002-54.204 44.144-98.302 98.4-98.302zM1023.872 470.658c-3.27 86.85-74.606 156.734-162.4 159.1-40.174 1.112-78.6-11.918-109.24-36.328-30.644 24.418-69.084 37.438-109.264 36.328-89.486-2.28-162.062-75.558-162.492-164.184-0.328-44.964 19.89-87.934 55.358-117.796l196.922-167.446c5.614-4.772 12.542-7.158 19.474-7.158 6.924 0 13.852 2.382 19.462 7.148l196.758 167.116c36.968 31.062 57.374 76.356 55.422 123.22zM929.64 393.268l-177.398-150.672-177.57 150.99c-21.874 18.416-34.304 44.494-34.106 71.552 0.158 57.516 48.714 104.876 107.040 104.652 31.622 0 61.304-13.542 81.818-37.438 5.71-6.65 14.040-10.476 22.808-10.476s17.098 3.826 22.806 10.474c21.162 24.65 52.052 38.23 84.812 37.398 57.49-1.458 103.984-48.32 104.050-105.010 0.096-27.030-12.35-53.044-34.26-71.47zM493.004 273.222l-60.48 0.184 9.72 41.846c6.158 26.512 1.47 53.74-13.198 76.674-19.374 31.272-55.592 48.738-92.098 44.81-11.612 0-22.182-6.682-27.154-17.166l-41.484-87.486c-10.178-21.464-25.942-39.874-45.592-53.24l-69.304-47.144h-122.914c-16.594 0-30.046-13.438-30.046-30.016v-235.534c0-16.578 13.452-30.016 30.046-30.016l384.156-0.134c51.834 0 99.666 30.238 121.858 77.034l51.814 109.26c15.592 32.88 13.296 70.878-6.14 101.648-19.438 30.768-52.784 49.19-89.184 49.28zM60.544 171.666h71.982v-175.502h-71.982zM534.022 147.994l-51.812-109.26c-12.302-25.942-38.818-42.704-67.552-42.704h-222.040v189.71l63.922 43.482c28.478 19.37 51.328 46.052 66.080 77.16l33.264 70.152c9.32-2.734 17.236-8.658 22.53-16.932 5.888-9.208 7.77-20.14 5.298-30.782l-18.242-78.532c-2.068-8.902 0.036-18.258 5.716-25.422 5.678-7.162 14.314-11.352 23.46-11.38l98.194-0.296c15.966-0.040 30.008-7.8 38.53-21.286 8.52-13.49 9.486-29.494 2.652-43.91z" />
<glyph unicode="&#xe907;" glyph-name="learning" d="M942.080 586.164h-61.028v6.854c0 17.060-13.88 30.938-30.94 30.938h-120.364c-8.296 0-15.021-6.723-15.021-15.021s6.725-15.021 15.021-15.021h120.364c0.495 0 0.897-0.401 0.897-0.895v-183.153c0-8.298 6.725-15.021 15.021-15.021s15.021 6.723 15.021 15.021v146.257h61.028c2.031 0 3.683-1.652 3.683-3.683v-524.056c0-34.375-27.965-62.34-62.34-62.34h-742.845c-34.375 0-62.34 27.965-62.34 62.34v524.056c0 2.031 1.652 3.683 3.683 3.683h63.031v-513.751c0-21.182 17.232-38.416 38.416-38.416h659.265c21.184 0 38.416 17.232 38.416 38.416v303.426c0 8.298-6.725 15.021-15.021 15.021s-15.021-6.723-15.021-15.021v-216.167h-243.031c-31.476 0-59.885-13.311-79.953-34.573v194.304c0 8.298-6.725 15.021-15.021 15.021s-15.021-6.723-15.021-15.021v-194.306c-20.068 21.262-48.478 34.573-79.953 34.573h-68.256c-8.296 0-15.021-6.723-15.021-15.021s6.725-15.021 15.021-15.021h68.256c39.181 0 71.847-28.338 78.637-65.589h-313.296c-4.619 0-8.374 3.755-8.374 8.374v57.215h110.706c8.296 0 15.021 6.723 15.021 15.021s-6.725 15.021-15.021 15.021h-110.706v463.39c0 0.495 0.403 0.895 0.897 0.895h120.364c8.296 0 15.021 6.723 15.021 15.021s-6.725 15.021-15.021 15.021h-120.364c-17.060 0-30.94-13.88-30.94-30.938v-6.854h-63.031c-18.596 0-33.726-15.129-33.726-33.726v-524.056c0-50.94 41.443-92.382 92.382-92.382h742.841c50.94 0 92.382 41.443 92.382 92.382v524.056c0.002 18.596-15.125 33.726-33.722 33.726zM607.977 99.587h243.031v-57.217c0-4.619-3.755-8.374-8.374-8.374h-313.292c6.788 37.253 39.454 65.591 78.635 65.591zM312.728 749.24c8.246-0.765 15.586 5.285 16.365 13.545 4.296 45.552 25.33 87.728 59.234 118.756 34.114 31.22 78.391 48.416 124.676 48.416 101.87 0 184.747-82.877 184.747-184.745 0-38.332-11.634-75.092-33.644-106.312-0.124-0.176-0.244-0.357-0.363-0.537l-96.124-149.647c-1.556-2.423-2.383-5.239-2.383-8.119v-19.459c0-3.95-3.213-7.162-7.162-7.162h-0.981l9.57 162.379h17.112c24.487 0 44.407 19.92 44.407 44.405v1.823c0 24.485-19.92 44.405-44.407 44.405-23.475 0-42.947-18.358-44.329-41.793l-1.108-18.797h-52.676l-1.108 18.797c-1.38 23.435-20.853 41.793-44.329 41.793-24.487 0-44.407-19.92-44.407-44.405v-1.823c0-24.485 19.92-44.405 44.407-44.405h17.112l9.564-162.275c-3.459 0.505-6.133 3.461-6.133 7.058v19.459c0 2.88-0.827 5.696-2.381 8.119l-96.126 149.647c-0.116 0.18-0.236 0.361-0.361 0.537-13.822 19.608-23.555 41.396-28.925 64.763-1.861 8.085-9.932 13.131-18.005 11.274-8.085-1.861-13.133-9.92-11.274-18.005 6.225-27.076 17.483-52.332 33.461-75.070l93.572-145.67v-15.051c0-15.167 9.135-28.224 22.183-34.010v-25.402c0-26.73 21.745-48.474 48.474-48.474h23.241c26.728 0 48.474 21.745 48.474 48.474v25.402c13.046 5.786 22.183 18.841 22.183 34.010v15.051l93.57 145.67c25.476 36.253 38.941 78.901 38.941 123.352-0.008 118.433-96.362 214.785-214.795 214.785-53.812 0-105.293-19.994-144.959-56.297-39.41-36.071-63.864-85.112-68.859-138.097-0.781-8.262 5.283-15.588 13.543-16.365zM569.436 663.427c0.447 7.581 6.746 13.519 14.338 13.519 7.921 0 14.364-6.443 14.364-14.362v-1.823c0-7.919-6.443-14.362-14.364-14.362h-15.342zM440.226 646.399c-7.921 0-14.364 6.443-14.364 14.362v1.823c0 7.919 6.443 14.362 14.364 14.362 7.595 0 13.892-5.938 14.338-13.519l1.003-17.028zM536.568 616.357l-9.568-162.379h-29.998l-9.568 162.379zM543.053 401.728c0-10.162-8.268-18.432-18.432-18.432h-23.241c-10.162 0-18.432 8.27-18.432 18.432v22.207h60.103v-22.207zM776.122 845.937c3.519 0 7.052 1.23 9.904 3.733l32.774 28.777c6.235 5.472 6.85 14.965 1.378 21.198s-14.963 6.85-21.198 1.378l-32.774-28.777c-6.235-5.472-6.85-14.965-1.378-21.198 2.97-3.383 7.122-5.111 11.294-5.111zM766.206 755.343l32.774-28.779c2.852-2.506 6.385-3.733 9.906-3.733 4.172 0 8.324 1.728 11.294 5.111 5.474 6.233 4.857 15.724-1.376 21.198l-32.774 28.779c-6.235 5.476-15.724 4.857-21.198-1.378-5.476-6.233-4.861-15.722 1.374-21.198zM207.203 878.447l32.774-28.777c2.852-2.506 6.385-3.733 9.904-3.733 4.172 0 8.324 1.728 11.294 5.111 5.474 6.233 4.857 15.726-1.378 21.198l-32.774 28.777c-6.233 5.476-15.726 4.857-21.198-1.378-5.474-6.233-4.857-15.724 1.378-21.198zM217.119 722.831c3.519 0 7.052 1.23 9.906 3.733l32.774 28.779c6.233 5.474 6.85 14.965 1.376 21.198-5.472 6.233-14.963 6.85-21.198 1.378l-32.774-28.779c-6.233-5.474-6.85-14.965-1.376-21.198 2.968-3.383 7.118-5.111 11.292-5.111zM380.101 438.956c0 8.298-6.725 15.021-15.021 15.021h-147.967c-8.296 0-15.021-6.723-15.021-15.021s6.725-15.021 15.021-15.021h147.967c8.296 0 15.021 6.723 15.021 15.021zM410.84 377.568h-166.593c-8.296 0-15.021-6.723-15.021-15.021s6.725-15.021 15.021-15.021h166.593c8.296 0 15.021 6.723 15.021 15.021s-6.725 15.021-15.021 15.021zM410.84 304.382h-166.593c-8.296 0-15.021-6.723-15.021-15.021s6.725-15.021 15.021-15.021h166.593c8.296 0 15.021 6.723 15.021 15.021s-6.725 15.021-15.021 15.021zM410.84 231.197h-166.593c-8.296 0-15.021-6.723-15.021-15.021s6.725-15.021 15.021-15.021h166.593c8.296 0 15.021 6.723 15.021 15.021s-6.725 15.021-15.021 15.021zM823.913 438.956c0 8.298-6.725 15.021-15.021 15.021h-147.967c-8.296 0-15.021-6.723-15.021-15.021s6.725-15.021 15.021-15.021h147.967c8.296 0 15.021 6.723 15.021 15.021zM781.756 377.568h-166.593c-8.296 0-15.021-6.723-15.021-15.021s6.725-15.021 15.021-15.021h166.593c8.296 0 15.021 6.723 15.021 15.021s-6.725 15.021-15.021 15.021zM781.756 304.382h-166.593c-8.296 0-15.021-6.723-15.021-15.021s6.725-15.021 15.021-15.021h166.593c8.296 0 15.021 6.723 15.021 15.021s-6.725 15.021-15.021 15.021zM781.756 231.197h-166.593c-8.296 0-15.021-6.723-15.021-15.021s6.725-15.021 15.021-15.021h166.593c8.296 0 15.021 6.723 15.021 15.021s-6.725 15.021-15.021 15.021z" />
<glyph unicode="&#xe908;" glyph-name="location" d="M512 960c-179.93 0-330-144.94-330-330 0-70.404 21.156-133.184 61.758-192.012l242.988-379.16c11.788-18.432 38.744-18.396 50.508 0l244.042 380.45c39.728 56.162 60.704 122.108 60.704 190.722 0 181.962-148.038 330-330 330zM512 480c-82.706 0-150 67.294-150 150s67.294 150 150 150c82.706 0 150-67.294 150-150s-67.294-150-150-150zM746.528 270.61l-151.062-236.174c-39.102-60.964-128.048-60.764-166.962-0.058l-151.308 236.17c-133.128-30.78-215.196-87.166-215.196-154.548 0-116.924 231.856-180 450-180s450 63.076 450 180c0 67.43-82.182 123.846-215.472 154.61z" />
<glyph unicode="&#xe909;" glyph-name="magnifying-glass" d="M1015.031-11.778l-248.848 248.848c66.753 76.743 107.168 176.873 107.168 286.311 0 240.901-195.945 436.619-436.619 436.619-240.901 0-436.619-195.945-436.619-436.619s195.945-436.619 436.619-436.619c109.439 0 209.568 40.415 286.311 107.168l248.848-248.848c5.903-5.903 13.85-9.082 21.57-9.082s15.667 2.952 21.57 9.082c11.807 11.807 11.807 31.333 0 43.14zM61.19 523.381c0 207.071 168.472 375.315 375.315 375.315 207.071 0 375.315-168.472 375.315-375.315s-168.245-375.542-375.315-375.542c-206.843 0-375.315 168.472-375.315 375.542z" />
<glyph unicode="&#xe90a;" glyph-name="messages" d="M938.667 960h-477.867c-47.105-0.058-85.275-38.228-85.333-85.328v-409.606c0.052-19.731 6.802-37.876 18.095-52.291l-0.14 0.186c-39.369-20.938-86.085-33.234-135.672-33.234-0.615 0-1.229 0.002-1.843 0.006h-119.373c-75.004-0.528-135.603-61.452-135.603-136.53 0-70.925 54.080-129.219 123.254-135.896l0.556-0.043 55.637-139.093c7.688-19.006 25.992-32.171 47.37-32.171 0.056 0 0.113 0 0.169 0h45.149c0.003 0 0.006 0 0.009 0 28.277 0 51.2 22.923 51.2 51.2 0 6.849-1.345 13.383-3.784 19.354l0.124-0.342-39.748 99.362c74.417-6.228 140.221-38.819 188.943-88.283l0.037-0.037c7.926-8.006 18.912-12.969 31.058-12.988h0.004c6.295 0.020 12.281 1.317 17.721 3.645l-0.296-0.113c16.457 6.928 27.802 22.921 27.802 41.564 0 0.004 0 0.007 0 0.011v-0.001 110.199c39.271 8.184 68.352 42.509 68.352 83.627s-29.081 75.443-67.798 83.53l-0.555 0.097v52.907h119.467v-115.541c-0.001-0.076-0.001-0.166-0.001-0.255 0-15.285 9.133-28.436 22.239-34.295l0.238-0.095c4.581-2.128 9.939-3.382 15.588-3.413h0.011c9.831 0.030 18.775 3.798 25.491 9.958l-0.028-0.025 157.935 143.667h51.593c47.105 0.058 85.275 38.228 85.333 85.328v409.606c-0.058 47.105-38.228 85.275-85.328 85.333h-0.006zM34.133 243.2c0.058 56.531 45.869 102.342 102.394 102.4h102.406v-204.8h-102.4c-56.531 0.058-102.342 45.869-102.4 102.394v0.006zM288.87-6.451c0.775-1.88 1.225-4.062 1.225-6.349 0-9.412-7.619-17.045-17.026-17.067h-45.16c-7.137 0.002-13.25 4.384-15.797 10.604l-0.041 0.114-50.33 125.815h81.92zM512 49.374c0-0.024 0-0.053 0-0.082 0-4.529-2.795-8.404-6.755-9.996l-0.072-0.026c-1.206-0.558-2.617-0.884-4.104-0.884-2.826 0-5.377 1.176-7.191 3.065l-0.003 0.003c-56.653 57.531-134.033 94.51-220.021 98.819l-0.788 0.031v205.79c86.794 4.327 164.195 41.309 220.819 98.808l0.041 0.042c1.819 1.891 4.372 3.065 7.198 3.065 1.486 0 2.895-0.324 4.162-0.906l-0.062 0.026c4.032-1.617 6.827-5.493 6.827-10.022 0-0.029 0-0.058 0-0.086v0.004zM580.267 243.2c-0.094-22.074-14.143-40.843-33.777-47.947l-0.357-0.113v96.119c19.99-7.217 34.039-25.986 34.133-48.048v-0.012zM989.867 465.067c0-28.277-22.923-51.2-51.2-51.2v0h-58.197c-4.431-0.003-8.467-1.695-11.499-4.466l0.013 0.012-162.731-148.053c-0.669-0.676-1.597-1.095-2.622-1.095-0.606 0-1.178 0.146-1.682 0.405l0.021-0.010c-1.325 0.54-2.243 1.819-2.243 3.312 0 0.078 0.002 0.155 0.007 0.231l-0.001-0.010v132.608c0 9.426-7.641 17.067-17.067 17.067v0h-136.533v23.159c0 0.038 0 0.084 0 0.13 0 18.643-11.344 34.636-27.506 41.454l-0.296 0.111c-5.091 2.236-11.025 3.537-17.262 3.537-12.214 0-23.262-4.988-31.22-13.039l-0.004-0.004c-13.988-13.941-29.257-26.614-45.61-37.823l-1.102-0.713c-8.34 9.011-13.475 21.095-13.534 34.378v409.612c0 28.277 22.923 51.2 51.2 51.2v0h477.867c28.277 0 51.2-22.923 51.2-51.2v0zM494.933 806.4h221.867c9.426 0 17.067 7.641 17.067 17.067s-7.641 17.067-17.067 17.067v0h-221.867c-9.426 0-17.067-7.641-17.067-17.067s7.641-17.067 17.067-17.067v0zM904.533 721.067h-409.6c-9.426 0-17.067-7.641-17.067-17.067s7.641-17.067 17.067-17.067v0h409.6c9.426 0 17.067 7.641 17.067 17.067s-7.641 17.067-17.067 17.067v0zM904.533 635.733h-273.067c-9.426 0-17.067-7.641-17.067-17.067s7.641-17.067 17.067-17.067v0h273.067c9.426 0 17.067 7.641 17.067 17.067s-7.641 17.067-17.067 17.067v0zM494.933 601.6h68.267c9.426 0 17.067 7.641 17.067 17.067s-7.641 17.067-17.067 17.067v0h-68.267c-9.426 0-17.067-7.641-17.067-17.067s7.641-17.067 17.067-17.067v0zM836.267 550.4h-341.333c-9.426 0-17.067-7.641-17.067-17.067s7.641-17.067 17.067-17.067v0h341.333c9.426 0 17.067 7.641 17.067 17.067s-7.641 17.067-17.067 17.067v0z" />
<glyph unicode="&#xe90b;" glyph-name="multiple-users-silhouette" d="M617.94 730.971c47.347-29.686 80.548-79.921 86.592-138.233 19.309-9.022 40.74-14.211 63.462-14.211 82.95 0 150.182 67.232 150.182 150.169 0 82.95-67.232 150.182-150.182 150.182-82.158-0.026-148.801-66.056-150.054-147.907zM519.553 423.477c82.95 0 150.182 67.244 150.182 150.182s-67.244 150.169-150.182 150.169c-82.937 0-150.207-67.244-150.207-150.182s67.27-150.169 150.207-150.169zM583.257 413.24h-127.435c-106.029 0-192.289-86.273-192.289-192.302v-155.843l0.396-2.441 10.735-3.361c101.186-31.616 189.094-42.159 261.45-42.159 141.326 0 223.24 40.293 228.288 42.862l10.032 5.073h1.073v155.868c0.038 106.029-86.221 192.302-192.251 192.302zM831.724 568.278h-126.451c-1.367-50.593-22.964-96.151-57.123-128.917 94.247-28.025 163.204-115.422 163.204-218.653v-48.024c124.853 4.575 196.8 39.961 201.541 42.338l10.032 5.086h1.073v155.894c0 106.017-86.26 192.276-192.276 192.276zM256.032 578.502c29.379 0 56.714 8.575 79.87 23.182 7.361 48.012 33.098 89.966 69.864 118.54 0.153 2.811 0.422 5.597 0.422 8.434 0 82.95-67.244 150.182-150.156 150.182-82.963 0-150.182-67.232-150.182-150.182 0-82.912 67.219-150.156 150.182-150.156zM390.904 439.361c-33.993 32.6-55.513 77.915-57.085 128.201-4.69 0.345-9.329 0.716-14.108 0.716h-127.422c-106.029 0-192.289-86.26-192.289-192.276v-155.868l0.396-2.402 10.735-3.386c81.174-25.341 153.619-37.021 216.544-40.702v47.066c0.026 103.231 68.957 190.602 163.229 218.653z" />
<glyph unicode="&#xe90c;" glyph-name="phone-call" d="M809.283 325.668c-20.964 21.828-46.25 33.499-73.049 33.499-26.583 0-52.085-11.454-73.914-33.283l-68.295-68.078c-5.619 3.026-11.238 5.835-16.641 8.645-7.78 3.89-15.129 7.564-21.396 11.454-63.972 40.631-122.109 93.581-177.869 162.092-27.015 34.147-45.17 62.892-58.353 92.068 17.722 16.209 34.147 33.067 50.14 49.276 6.051 6.051 12.103 12.319 18.154 18.37 45.386 45.386 45.386 104.171 0 149.557l-59.001 59.001c-6.7 6.7-13.616 13.616-20.099 20.532-12.967 13.4-26.583 27.231-40.631 40.199-20.964 20.748-46.034 31.77-72.401 31.77s-51.869-11.022-73.482-31.77c-0.216-0.216-0.216-0.216-0.432-0.432l-73.482-74.13c-27.664-27.664-43.441-61.379-46.899-100.497-5.187-63.108 13.4-121.893 27.664-160.363 35.012-94.445 87.313-181.975 165.333-275.772 94.662-113.032 208.558-202.29 338.664-265.182 49.708-23.557 116.058-51.437 190.188-56.192 4.539-0.216 9.293-0.432 13.616-0.432 49.924 0 91.852 17.938 124.703 53.598 0.216 0.432 0.648 0.648 0.864 1.081 11.238 13.616 24.206 25.935 37.821 39.118 9.293 8.861 18.803 18.154 28.096 27.88 21.396 22.261 32.634 48.195 32.634 74.778 0 26.799-11.454 52.518-33.283 74.13l-118.651 119.083zM886.654 98.092c-0.216 0-0.216-0.216 0 0-8.429-9.077-17.074-17.29-26.367-26.367-14.048-13.4-28.312-27.448-41.712-43.224-21.828-23.341-47.547-34.363-81.262-34.363-3.242 0-6.7 0-9.942 0.216-64.188 4.106-123.838 29.176-168.575 50.573-122.325 59.217-229.738 143.289-318.996 249.837-73.698 88.826-122.974 170.953-155.608 259.131-20.099 53.814-27.448 95.742-24.206 135.293 2.161 25.286 11.887 46.25 29.825 64.188l73.698 73.698c10.59 9.942 21.828 15.345 32.851 15.345 13.616 0 24.638-8.213 31.554-15.129 0.216-0.216 0.432-0.432 0.648-0.648 13.183-12.319 25.719-25.070 38.902-38.686 6.7-6.916 13.616-13.832 20.532-20.964l59.001-59.001c22.909-22.909 22.909-44.089 0-66.998-6.268-6.268-12.319-12.535-18.587-18.587-18.154-18.587-35.444-35.876-54.247-52.734-0.432-0.432-0.864-0.648-1.081-1.081-18.587-18.587-15.129-36.741-11.238-49.060 0.216-0.648 0.432-1.297 0.648-1.945 15.345-37.173 36.957-72.185 69.807-113.896l0.216-0.216c59.65-73.482 122.541-130.754 191.917-174.627 8.861-5.619 17.938-10.158 26.583-14.48 7.78-3.89 15.129-7.564 21.396-11.454 0.864-0.432 1.729-1.081 2.593-1.513 7.348-3.674 14.264-5.403 21.396-5.403 17.938 0 29.176 11.238 32.851 14.912l73.914 73.914c7.348 7.348 19.019 16.209 32.634 16.209 13.4 0 24.422-8.429 31.122-15.777 0.216-0.216 0.216-0.216 0.432-0.432l119.083-119.083c22.261-22.044 22.261-44.737 0.216-67.646zM553.394 716.417c56.624-9.509 108.061-36.309 149.124-77.372s67.646-92.5 77.372-149.124c2.377-14.264 14.696-24.206 28.744-24.206 1.729 0 3.242 0.216 4.971 0.432 15.993 2.593 26.583 17.722 23.99 33.715-11.671 68.511-44.089 130.97-93.581 180.462s-111.951 81.91-180.462 93.581c-15.993 2.593-30.905-7.997-33.715-23.773s7.564-31.122 23.557-33.715zM1022.811 508.292c-19.235 112.816-72.401 215.474-154.095 297.168s-184.352 134.86-297.168 154.095c-15.777 2.81-30.689-7.997-33.499-23.773-2.593-15.993 7.997-30.905 23.99-33.715 100.713-17.074 192.565-64.837 265.614-137.67 73.049-73.049 120.596-164.901 137.67-265.614 2.377-14.264 14.696-24.206 28.744-24.206 1.729 0 3.242 0.216 4.971 0.432 15.777 2.377 26.583 17.506 23.773 33.283z" />
<glyph unicode="&#xe90d;" glyph-name="play-button" d="M967.334 682.345c-35.856 69.541-88.146 130.947-151.209 177.583-9.256 6.842-22.3 4.887-29.146-4.366s-4.887-22.3 4.366-29.146c57.955-42.857 106-99.28 138.949-163.174 34.522-66.95 52.026-139.366 52.026-215.245 0-259.335-210.987-470.322-470.322-470.322s-470.322 210.987-470.322 470.325 210.987 470.322 470.322 470.322c11.506 0 20.838 9.332 20.838 20.838s-9.332 20.838-20.838 20.838c-282.316 0-511.998-229.682-511.998-511.998s229.682-511.998 511.998-511.998 511.998 229.682 511.998 511.998c0 81.422-19.591 162.455-56.663 234.343zM380.988 685.738c-6.515-3.706-10.541-10.624-10.541-18.115v-457.308c0-11.51 9.332-20.838 20.838-20.838s20.838 9.329 20.838 20.838v420.651l308.52-183.664-226.873-146.17c-9.672-6.234-12.465-19.129-6.231-28.802 6.238-9.676 19.129-12.468 28.805-6.231l255.147 164.389c6.064 3.907 9.676 10.673 9.547 17.886s-3.977 13.847-10.176 17.539l-368.92 219.617c-6.446 3.831-14.441 3.914-20.956 0.208z" />
<glyph unicode="&#xe90e;" glyph-name="right-arrow" d="M830.88 432l-814.88 0.656c-8.837 0-16 7.163-16 16s7.163 16 16 16v0l814.896-0.656c8.837 0 16-7.163 16-16s-7.163-16-16-16v0zM1024 447.808c-90.896-33.6-203.696-91.072-273.6-152l55.136 152.192-54.928 152.208c69.84-61.008 182.544-118.608 273.392-152.4z" />
<glyph unicode="&#xe90f;" glyph-name="up-arrow" d="M528 766.88l-0.656-814.88c0-8.837-7.163-16-16-16s-16 7.163-16 16v0l0.656 814.896c0 8.837 7.163 16 16 16s16-7.163 16-16v0zM512.192 960c33.6-90.896 91.072-203.696 152-273.6l-152.192 55.136-152.208-54.928c61.008 69.84 118.608 182.544 152.4 273.392z" />
<glyph unicode="&#xe910;" glyph-name="left-arrow" d="M193.12 464l814.88-0.656c8.837 0 16-7.163 16-16s-7.163-16-16-16v0l-814.896 0.656c-8.837 0-16 7.163-16 16s7.163 16 16 16v0zM0 448.192c90.896 33.6 203.696 91.072 273.6 152l-55.136-152.192 54.928-152.208c-69.84 61.008-182.544 118.608-273.392 152.4z" />
<glyph unicode="&#xe911;" glyph-name="down-arrow" d="M496 129.12l0.656 814.88c0 8.837 7.163 16 16 16s16-7.163 16-16v0l-0.656-814.896c0-8.837-7.163-16-16-16s-16 7.163-16 16v0zM511.808-64c-33.6 90.896-91.072 203.696-152 273.6l152.192-55.136 152.208 54.928c-61.008-69.84-118.608-182.544-152.4-273.392z" />
<glyph unicode="&#xe912;" glyph-name="right-arrow-two" d="M280.844 167.157l45.612 45.614-202.973 202.975h900.517v64.509h-900.517l202.973 202.973-45.612 45.614-280.844-280.844z" />
<glyph unicode="&#xe913;" glyph-name="up-arrow-two" d="M231.157 679.156l45.614-45.612 202.975 202.973v-900.517h64.509v900.517l202.973-202.973 45.614 45.612-280.844 280.844z" />
<glyph unicode="&#xe914;" glyph-name="right-arrow-two1" d="M743.156 728.843l-45.612-45.614 202.973-202.975h-900.517v-64.509h900.517l-202.973-202.973 45.612-45.614 280.844 280.844z" />
<glyph unicode="&#xe915;" glyph-name="down-arrow-two" d="M792.843 216.844l-45.614 45.612-202.975-202.973v900.517h-64.509v-900.517l-202.973 202.973-45.614-45.612 280.844-280.844z" />
<glyph unicode="&#xe916;" glyph-name="shopping-cart" d="M307.407 285.773h564.225c63.978 0 116.17 52.192 116.17 116.17v237.391c0 0.21 0 0.631 0 0.842 0 0.631 0 1.052 0 1.684 0 0.421 0 0.842-0.21 1.263 0 0.421-0.21 1.052-0.21 1.473s-0.21 0.842-0.21 1.263c-0.21 0.421-0.21 0.842-0.421 1.473-0.21 0.421-0.21 0.842-0.421 1.263s-0.21 0.842-0.421 1.263c-0.21 0.421-0.421 0.842-0.631 1.473-0.21 0.421-0.421 0.842-0.631 1.052-0.21 0.421-0.421 0.842-0.631 1.263s-0.421 0.631-0.631 1.052c-0.21 0.421-0.631 0.842-0.842 1.263s-0.421 0.631-0.842 1.052c-0.21 0.421-0.631 0.631-0.842 1.052s-0.631 0.631-0.842 1.052-0.631 0.631-0.842 0.842c-0.421 0.421-0.631 0.631-1.052 1.052-0.421 0.21-0.631 0.631-1.052 0.842s-0.842 0.631-1.263 0.842c-0.421 0.21-0.631 0.421-1.052 0.631s-0.842 0.421-1.263 0.842c-0.421 0.21-0.842 0.421-1.263 0.631s-0.842 0.421-1.263 0.631-0.842 0.421-1.263 0.631-0.842 0.21-1.263 0.421c-0.421 0.21-1.052 0.421-1.473 0.421s-0.842 0.21-1.052 0.21-1.052 0.21-1.684 0.21c-0.21 0-0.421 0.21-0.842 0.21l-715.12 98.703v99.755c0 1.052 0 2.105-0.21 2.946 0 0.21 0 0.421-0.21 0.842 0 0.631-0.21 1.263-0.21 1.894-0.21 0.631-0.21 1.052-0.421 1.684 0 0.421-0.21 0.631-0.21 1.052-0.21 0.631-0.421 1.263-0.631 1.894 0 0.21-0.21 0.631-0.21 0.842-0.21 0.631-0.421 1.052-0.842 1.684-0.21 0.21-0.21 0.631-0.421 0.842-0.21 0.421-0.421 0.842-0.842 1.263-0.21 0.421-0.421 0.631-0.631 1.052s-0.421 0.631-0.631 1.052-0.631 0.842-0.842 1.263c-0.21 0.21-0.421 0.421-0.631 0.631-0.421 0.421-0.842 0.842-1.263 1.263-0.21 0.21-0.421 0.421-0.631 0.631-0.421 0.421-0.842 0.842-1.473 1.263-0.21 0.21-0.631 0.421-0.842 0.631-0.421 0.421-0.842 0.631-1.263 1.052-0.631 0.421-1.263 0.842-1.684 1.052-0.21 0.21-0.421 0.21-0.631 0.421-0.842 0.421-1.894 0.842-2.736 1.263l-155.104 65.24c-14.521 6.103-31.147-0.631-37.25-15.153s0.631-31.147 15.153-37.25l137.636-58.085v-622.521c0-58.927 44.195-107.752 101.228-115.118-10.312-17.257-16.415-37.461-16.415-58.927 0-63.346 51.561-114.697 114.697-114.697s114.697 51.561 114.697 114.697c0 21.045-5.682 41.038-15.784 57.875h255.49c-10.102-17.047-15.784-36.829-15.784-57.875 0-63.346 51.561-114.697 114.697-114.697s114.697 51.561 114.697 114.697-51.561 114.697-114.697 114.697h-536.656c-32.831 0-59.348 26.728-59.348 59.348v77.026c17.257-10.102 37.671-15.994 59.348-15.994zM448.831 50.907c0-31.989-26.096-57.875-57.875-57.875s-57.875 26.096-57.875 57.875 26.096 57.875 57.875 57.875 57.875-25.886 57.875-57.875zM902.148 50.907c0-31.989-26.096-57.875-57.875-57.875s-57.875 26.096-57.875 57.875 26.096 57.875 57.875 57.875 57.875-25.886 57.875-57.875zM871.632 342.596h-564.225c-32.831 0-59.348 26.728-59.348 59.348v307.051l682.921-94.073v-212.768c0-33.041-26.728-59.558-59.348-59.558z" />
<glyph unicode="&#xe917;" glyph-name="zakat" d="M1020.904 138.032c-5.164 19.938-29.020 56.39-83.152 53.642-0.33-0.018-0.658-0.042-0.986-0.076l-50.526-5.076c23.43 27.234 37.342 62.492 37.342 99.998v130.196c0 86.082-38.072 166.886-104.452 221.692l-57.768 47.716c13.358 12.19 21.754 29.732 21.754 49.198 0 22.806-11.526 42.966-29.052 54.978l40.566 74.844c6.792 12.53 6.494 27.32-0.798 39.566-7.29 12.246-20.152 19.556-34.406 19.556h-281.47c-14.252 0-27.112-7.31-34.404-19.554-7.292-12.246-7.59-27.036-0.8-39.566l40.566-74.844c-17.526-12.012-29.052-32.172-29.052-54.978 0-19.468 8.396-37.012 21.758-49.202l-57.76-47.71c-66.382-54.808-104.454-135.612-104.454-221.694v-20.266c-0.174-0.030-0.356-0.056-0.53-0.084-43.436-7.322-74.932-22.376-86.856-28.748h-30.86v8.012c0 19.674-17.984 35.68-40.090 35.68h-114.384c-22.106 0-40.090-16.006-40.090-35.68v-37.818c0-11.058 8.964-20.020 20.020-20.020s20.020 8.964 20.020 20.020v33.456h114.48v-249.67c-0.016 0-0.032 0-0.048 0h-114.382c-0.016 0-0.032 0-0.048 0v33.782c0 11.058-8.964 20.020-20.020 20.020s-20.020-8.964-20.020-20.020v-38.144c0-19.674 17.984-35.68 40.090-35.68h114.384c21.284 0 38.698 14.85 39.966 33.514h31.164l188.208-101.040c0.23-0.124 0.462-0.242 0.696-0.356 56.322-27.462 120.318-41.948 181.014-41.946 24.752 0 48.966 2.41 71.87 7.332l301.95 65.378c0.786 0.17 1.562 0.388 2.322 0.652 39.25 13.612 59.504 52.67 48.238 92.94zM520.684 708.762c-14.562 0.106-26.378 11.976-26.378 26.56 0 14.652 11.92 26.572 26.57 26.572h195.628c14.652 0 26.57-11.92 26.57-26.572 0-14.586-11.816-26.456-26.378-26.56zM759.43 884.226l-44.602-82.29h-192.272l-44.6 82.29zM353.85 416.718c0 74.092 32.77 143.642 89.91 190.82l74.072 61.184h201.726l74.076-61.186c57.138-47.174 89.908-116.724 89.908-190.816v-130.196c0-49.614-32.91-93.92-80.218-108.33l-66.964-6.728c3.64 28.584-9.814 57.68-35.144 72.972l-179.654 108.458c-61.346 39.048-120.618 48.76-167.714 47.432v16.39zM960.584 83.3l-300.636-65.094c-69.4-14.916-156.17-2.922-226.546 31.292l-192.294 103.234c-2.912 1.564-6.164 2.382-9.47 2.382h-36.074v172.462h36.074c3.638 0 7.254 1.020 10.372 2.896 0.312 0.188 31.87 18.938 79.496 26.67 4.786 0.778 9.554 1.404 14.306 1.914 0.048 0.004 0.096 0.010 0.144 0.016 57.656 6.158 112.86-7.282 164.294-40.074 0.138-0.088 180.274-108.84 180.274-108.84 13.598-8.21 19.744-25.078 14.616-40.112-5.866-17.194-23.764-26.598-41.13-21.846l-135.364 64.72c-9.976 4.766-21.93 0.55-26.698-9.426-4.77-9.976-0.548-21.93 9.426-26.698 0 0 138.552-66.17 139.462-66.454 27.692-8.66 56.336-0.556 75.156 18.834l224.26 22.534c32.466 1.438 40.526-19.19 41.928-23.872 0.052-0.236 0.026-0.094 0.126-0.446 5.624-19.874-2.892-37.064-21.722-44.092zM560.108 377.75c14.228-9.308 24.858-13.306 37.456-14.878v-6.588c0-11.058 8.964-20.020 20.020-20.020s20.020 8.964 20.020 20.020v8.626c26.782 8.080 43.912 31.528 47.8 54.66 5.214 31.010-11.6 59.026-41.836 69.714-16.262 5.75-34.23 12.68-44.192 20.492-2.658 2.086-3.766 7.092-2.754 12.458 0.518 2.748 2.928 11.934 12.212 14.73 19.484 5.87 37.066-7.628 37.656-8.090 8.52-6.934 21.048-5.712 28.062 2.764 7.050 8.518 5.858 21.14-2.66 28.188-0.868 0.718-14.29 11.6-34.29 16.412v6.268c0 11.058-8.964 20.020-20.020 20.020s-20.020-8.964-20.020-20.020v-7.128c-0.092-0.028-0.182-0.048-0.274-0.076-20.54-6.188-35.872-23.682-40.014-45.656-3.822-20.28 2.842-39.968 17.392-51.38 14.48-11.356 35.26-19.562 55.558-26.736 16.386-5.792 16.866-18.352 15.694-25.324-1.946-11.578-11.688-24.092-28.476-24.204-17.312-0.13-22.294 0.668-35.416 9.252-9.254 6.052-21.662 3.46-27.716-5.794-6.050-9.248-3.456-21.656 5.798-27.71zM40.040 246.436c0-11.057-8.963-20.020-20.020-20.020s-20.020 8.963-20.020 20.020c0 11.057 8.963 20.020 20.020 20.020s20.020-8.963 20.020-20.020z" />
<glyph unicode="&#xe918;" glyph-name="zakat-two" d="M1013.292 307.606h-93.92c-18.696 0-34.692-11.58-41.328-27.924-13.19 0.944-35.142 2.558-53.050 15.108-49.778 34.434-107.554 32.196-162.664-6.244-25.384-17.67-58.828-26.972-93.67-26.508h-94.336c-21.144 0-39.226-13.322-46.32-32.014-48.652 30.544-105.616 57.99-173.61 83.66-14.71 5.498-32.768 0.204-41.496-16.378-10.322-19.764-4.27-44.126 14.114-56.688 69.828-47.39 228.842-155.26 300.726-200.854 25.128-15.89 56.434-17.544 83.784-4.464 96.414 45.982 182.792 61.128 263.874 46.362 3.22-21.472 21.62-38.046 43.976-38.046h93.92c5.896 0 10.666 4.776 10.666 10.666v242.658c0 5.89-4.77 10.666-10.666 10.666zM602.326 54.548c-20.728-9.916-44.33-8.676-63.182 3.234-71.684 45.47-231.066 153.6-300.122 200.468-9.436 6.448-12.54 18.988-7.542 28.586 4.252 7.228 10.11 8.862 15.426 6.874 70.578-26.648 128.916-55.172 178.152-87.108 1.624-21.040 13.010-36.424 32.434-43.6 66.954-24.722 125.762-15.094 197.88-9.12 5.874 0.484 10.238 5.64 9.76 11.51-0.5 5.87-5.728 10.296-11.51 9.75-71.018-5.878-126.378-15.142-188.734 7.87-12.302 4.546-18.592 14.15-18.696 28.544 0 0.25-0.020 0.572-0.042 0.928 0 0.016 0 0.026 0 0.042 0 15.54 12.634 28.18 28.174 28.18h94.158c39.538-0.666 77.004 10.124 106.044 30.336 47.278 32.982 96.408 35.206 138.27 6.244 21.816-15.292 46.392-17.616 61.932-18.752v-1.958c-0.046-9.612 0-151.768 0-153.040-84.228 14.234-173.528-1.838-272.402-48.988zM1002.626 64.948h-83.254c-12.854 0-23.31 10.452-23.31 23.306 0 1.066-0.060 170.982 0.118 175.882 0.624 12.3 10.74 22.138 23.192 22.138h83.254zM497.554 567.016c-71.838 0-130.28-58.51-130.28-130.426s58.444-130.422 130.28-130.422c71.91 0 130.416 58.506 130.416 130.422s-58.506 130.426-130.416 130.426zM497.554 327.5c-60.078 0-108.95 48.938-108.95 109.090 0 60.156 48.87 109.096 108.95 109.096 60.152 0 109.084-48.938 109.084-109.096 0-60.152-48.934-109.090-109.084-109.090zM497.626 478.476c8.614 0 15.614-7 15.614-15.608 0-5.89 4.77-10.666 10.666-10.666s10.666 4.776 10.666 10.666c0 16.636-11.126 30.574-26.28 35.184v4.276c0 5.89-4.77 10.666-10.666 10.666s-10.666-4.776-10.666-10.666v-4.278c-15.152-4.61-26.28-18.548-26.28-35.184 0-20.374 16.572-36.944 36.944-36.944 8.614 0 15.614-7 15.614-15.608s-7-15.608-15.614-15.608-15.614 7-15.614 15.608c0 5.89-4.77 10.666-10.666 10.666s-10.666-4.776-10.666-10.666c0-16.636 11.128-30.574 26.28-35.184v-4.282c0-5.89 4.77-10.666 10.666-10.666s10.666 4.776 10.666 10.666v4.282c15.152 4.61 26.28 18.548 26.28 35.184 0 20.368-16.572 36.94-36.944 36.94-8.614 0-15.614 7.004-15.614 15.614s7 15.608 15.614 15.608zM491.324 632.438c34.624 8.142 36.532 48.892 7.812 64.938-24.362 13.832-59.672 20.29-113.344 20.56 34.144 25.49 69.364 27.924 102.064 14.614 43.194-17.582 86.826-38.674 133.396-64.484 22.594-12.546 52.222 0.542 55.38 26.456 1.73 14.030-3.188 28.294-13.156 38.148v0.006c-35.446 35.012-79.368 68.234-134.292 101.564-66.846 40.554-133.462 31.478-284.3 4.702-40.242-7.148-79.040-8.088-117.636-3.162-2.596 18.966-18.736 33.676-38.404 33.676h-78.136c-5.896 0-10.666-4.776-10.666-10.666v-201.88c0-5.89 4.77-10.666 10.666-10.666h78.14c17.554 0 32.26 11.752 37.102 27.748 29.072-3.614 54.484-10.16 76.286-20.098 89.76-45.436 191.274-44.844 289.088-21.456zM106.45 685.174c0-9.702-7.896-17.598-17.602-17.598h-67.474v180.548h67.474c9.708 0 17.602-7.896 17.602-17.598zM248.616 817.938c150.384 26.694 210.882 33.632 269.508-1.938 53.474-32.45 96.118-64.672 130.354-98.502 5.302-5.24 7.906-12.858 6.99-20.378-1.324-10.716-14.364-15.65-23.884-10.4-47.308 26.228-91.69 47.684-135.686 65.588-44.608 18.146-91.584 11.724-135.572-27.7-10.966-9.848-4.078-28.202 10.958-28.076 57.38 0.808 94.576-4.792 117.386-17.744 11.48-6.416 13.682-21.846-2.26-25.592-106.158-25.384-198.526-18.744-274.936 19.916-24.242 11.058-52.072 18.23-83.692 22.106v118.986c39.664-4.74 79.536-3.6 120.834 3.734z" />
</font>
</defs>
</svg>
